(Progressive Rock) [CD] Asturias - Across The Ridge To Heaven - 2018, FLAC (tracks+.cue), lossless 

Цитировать
Asturias - Across The Ridge To Heaven
Жанр: Progressive Rock
Носитель: CD
Год выпуска диска: 2018
Страна: Japan
Производитель диска: Asturias / AS-0009
Аудио кодек: FLAC
Тип рипа: tracks+.cue
Битрейт аудио: lossless
Продолжительность: 52:39
Наличие сканов в содержимом раздачи:
Трэклист:
- Part I
01. Mountains (5:41)
02. Ritual (3:41)
03. Sky Burial (3:09)
04. Peak (4:41)
05. Fly With The Wind (9:20)
- Part II
06. Empty Sky (7:18)
07. Dawn Wind (4:33)
08. Watershed (2:10)
09. Ridge To Heaven (8:38)
10. Holy Land (3:27)
Состав:
- Yoh Ohyama / guitars (acoustic, Spanish, 12-string, electric), bass, mandolin, keyboards, glockensiel, harp, synth programming, percussion, composer & arranger
With:
- Yoko Ueno / voice
- Risa Ohki / voice
- Kana Takahashi / flute
- Kaori Tsutsui / clarinet, recorders
- Takahide Horiko / oboe
- Tei Sena / violin, viola
- Kiyotaka Tanabe / drums
- Yohei Kanno / cello (3,5,6)
- Satoshi Hirata / guitar (7)
- Yoshihiro Kawagoe / keyboards (4)
Доп. информация: http://www.progarchives.com/artist.asp?id=4451

Отчёт EAC

Exact Audio Copy V1.0 beta 3 from 29. August 2011
EAC extraction logfile from 4. September 2018, 15:27
Asturias / Across The Ridge To Heaven
Used drive : MATSHITADVD+-RW UJ8E2 Adapter: 0 ID: 0
Read mode : SecureUtilize accurate stream : YesDefeat audio cache : YesMake use of C2 pointers : No
Read offset correction : 103Overread into Lead-In and Lead-Out : NoFill up missing offset samples with silence : YesDelete leading and trailing silent blocks : NoNull samples used in CRC calculations : YesUsed interface : Native Win32 interface for Win NT & 2000Gap handling : Appended to previous track
Used output format : User Defined EncoderSelected bitrate : 768 kBit/sQuality : HighAdd ID3 tag : NoCommand line compressor : C:\Program Files (x86)\Exact Audio Copy\FLAC\FLAC.EXEAdditional command line options : -8 -V -T "ARTIST=%artist%" -T "TITLE=%title%" -T "ALBUM=%albumtitle%" -T "DATE=%year%" -T "TRACKNUMBER=%tracknr%" -T "TOTALTRACKS=%numtracks%" -T "GENRE=%genre%" -T "ALBUMARTIST=%albumartist%" -T "ALBUM ARTIST=%albumartist%" -T "COMMENT=EAC Secure Mode, Test & Copy, AccurateRip, FLAC -8" %source%
TOC of the extracted CD
Track | Start | Length | Start sector | End sector --------------------------------------------------------- 1 | 0:00.00 | 5:41.31 | 0 | 25605 2 | 5:41.31 | 3:40.67 | 25606 | 42172 3 | 9:22.23 | 3:08.64 | 42173 | 56336 4 | 12:31.12 | 4:40.38 | 56337 | 77374 5 | 17:11.50 | 9:20.42 | 77375 | 119416 6 | 26:32.17 | 7:18.30 | 119417 | 152296 7 | 33:50.47 | 4:33.43 | 152297 | 172814 8 | 38:24.15 | 2:09.50 | 172815 | 182539 9 | 40:33.65 | 8:37.67 | 182540 | 221381 10 | 49:11.57 | 3:28.06 | 221382 | 236987
Track 1
Filename C:\bzp01\Asturias - Across The Ridge To Heaven (2018) [FLAC] {AS-0009}\01 - Mountains.wav
Pre-gap length 0:00:02.00
Peak level 100.0 % Extraction speed 2.6 X Track quality 100.0 % Test CRC 327D8DB6 Copy CRC 327D8DB6 Track not present in AccurateRip database Copy OK
Track 2
Filename C:\bzp01\Asturias - Across The Ridge To Heaven (2018) [FLAC] {AS-0009}\02 - Ritual.wav
Peak level 100.0 % Extraction speed 2.8 X Track quality 100.0 % Test CRC AE326BE1 Copy CRC AE326BE1 Track not present in AccurateRip database Copy OK
Track 3
Filename C:\bzp01\Asturias - Across The Ridge To Heaven (2018) [FLAC] {AS-0009}\03 - Sky Burial.wav
Peak level 98.4 % Extraction speed 2.9 X Track quality 100.0 % Test CRC F9400BA4 Copy CRC F9400BA4 Track not present in AccurateRip database Copy OK
Track 4
Filename C:\bzp01\Asturias - Across The Ridge To Heaven (2018) [FLAC] {AS-0009}\04 - Peak.wav
Peak level 100.0 % Extraction speed 2.5 X Track quality 99.9 % Test CRC B60F63D4 Copy CRC B60F63D4 Track not present in AccurateRip database Copy OK
Track 5
Filename C:\bzp01\Asturias - Across The Ridge To Heaven (2018) [FLAC] {AS-0009}\05 - Fly With The Wind.wav
Peak level 100.0 % Extraction speed 3.8 X Track quality 100.0 % Test CRC 10BDDA59 Copy CRC 10BDDA59 Track not present in AccurateRip database Copy OK
Track 6
Filename C:\bzp01\Asturias - Across The Ridge To Heaven (2018) [FLAC] {AS-0009}\06 - Empty Sky.wav
Peak level 100.0 % Extraction speed 4.2 X Track quality 100.0 % Test CRC 0DE46B29 Copy CRC 0DE46B29 Track not present in AccurateRip database Copy OK
Track 7
Filename C:\bzp01\Asturias - Across The Ridge To Heaven (2018) [FLAC] {AS-0009}\07 - Dawn Wind.wav
Peak level 100.0 % Extraction speed 3.2 X Track quality 99.9 % Test CRC 7E08F53B Copy CRC 7E08F53B Track not present in AccurateRip database Copy OK
Track 8
Filename C:\bzp01\Asturias - Across The Ridge To Heaven (2018) [FLAC] {AS-0009}\08 - Watershed.wav
Peak level 98.0 % Extraction speed 3.8 X Track quality 100.0 % Test CRC 7C15A40B Copy CRC 7C15A40B Track not present in AccurateRip database Copy OK
Track 9
Filename C:\bzp01\Asturias - Across The Ridge To Heaven (2018) [FLAC] {AS-0009}\09 - Ridge To Heaven.wav
Peak level 100.0 % Extraction speed 4.2 X Track quality 99.9 % Test CRC D4ECAF8F Copy CRC D4ECAF8F Track not present in AccurateRip database Copy OK
Track 10
Filename C:\bzp01\Asturias - Across The Ridge To Heaven (2018) [FLAC] {AS-0009}\10 - Holy Land.wav
Peak level 100.0 % Extraction speed 4.6 X Track quality 100.0 % Test CRC 47A99B3D Copy CRC 47A99B3D Track not present in AccurateRip database Copy OK
None of the tracks are present in the AccurateRip database
No errors occurred
End of status report
==== Log checksum 9DF58CBDFA7C71801DCE98A0CF57690FB6DC5185F12A96780CC239F297AB7A0B ====

.cue

REM GENRE "Progressive Rock"REM DATE 2018REM DISCID 770C570AREM COMMENT "ExactAudioCopy v1.0b3"PERFORMER "Asturias"TITLE "Across The Ridge To Heaven"FILE "01 - Mountains.wav" WAVE  TRACK 01 AUDIO    TITLE "Mountains"    PERFORMER "Asturias"    INDEX 01 00:00:00FILE "02 - Ritual.wav" WAVE  TRACK 02 AUDIO    TITLE "Ritual"    PERFORMER "Asturias"    INDEX 01 00:00:00FILE "03 - Sky Burial.wav" WAVE  TRACK 03 AUDIO    TITLE "Sky Burial"    PERFORMER "Asturias"    INDEX 01 00:00:00FILE "04 - Peak.wav" WAVE  TRACK 04 AUDIO    TITLE "Peak"    PERFORMER "Asturias"    INDEX 01 00:00:00FILE "05 - Fly With The Wind.wav" WAVE  TRACK 05 AUDIO    TITLE "Fly With The Wind"    PERFORMER "Asturias"    INDEX 01 00:00:00FILE "06 - Empty Sky.wav" WAVE  TRACK 06 AUDIO    TITLE "Empty Sky"    PERFORMER "Asturias"    INDEX 01 00:00:00FILE "07 - Dawn Wind.wav" WAVE  TRACK 07 AUDIO    TITLE "Dawn Wind"    PERFORMER "Asturias"    INDEX 01 00:00:00FILE "08 - Watershed.wav" WAVE  TRACK 08 AUDIO    TITLE "Watershed"    PERFORMER "Asturias"    INDEX 01 00:00:00FILE "09 - Ridge To Heaven.wav" WAVE  TRACK 09 AUDIO    TITLE "Ridge To Heaven"    PERFORMER "Asturias"    INDEX 01 00:00:00FILE "10 - Holy Land.wav" WAVE  TRACK 10 AUDIO    TITLE "Holy Land"    PERFORMER "Asturias"    INDEX 01 00:00:00

CueTools

[CUETools log; Date: 2018.10.12. 21:22:12; Version: 2.1.6][CTDB TOCID: lCHQp8ZM0v9ZF_gXm7HjkD7cnsU-] found.Track | CTDB Status  1   | (11/11) Accurately ripped  2   | (11/11) Accurately ripped  3   | (11/11) Accurately ripped  4   | (11/11) Accurately ripped  5   | (11/11) Accurately ripped  6   | (11/11) Accurately ripped  7   | (11/11) Accurately ripped  8   | (11/11) Accurately ripped  9   | (11/11) Accurately ripped 10   | (11/11) Accurately ripped[AccurateRip ID: 0013a312-009ef9ac-770c570a] found.Track   [  CRC   |   V2   ] Status 01     [33813db1|7e86a4bf] (0+1/1) Accurately ripped 02     [44e674a6|4e859f06] (0+1/1) Accurately ripped 03     [d740805c|56b64aee] (0+1/1) Accurately ripped 04     [885545b9|ae0625a0] (0+1/1) Accurately ripped 05     [d6f5aa5b|e936581b] (0+1/1) Accurately ripped 06     [d53d7d0d|1d30467e] (0+1/1) Accurately ripped 07     [52a24d4b|320cf1f8] (0+1/1) Accurately ripped 08     [12cf5a8d|1efee27a] (0+1/1) Accurately ripped 09     [5a193158|731c5ba6] (0+1/1) Accurately ripped 10     [8f68e4ca|31e9be13] (0+1/1) Accurately ripped
Track Peak [ CRC32 ] [W/O NULL] [ LOG ] -- 100,0 [B7B2BA30] [F64C1E66] 01 100,0 [327D8DB6] [50C38172] CRC32 02 100,0 [AE326BE1] [FDAB2274] CRC32 03 98,4 [F9400BA4] [5B81F5C3] CRC32 04 100,0 [B60F63D4] [547A481B] CRC32 05 100,0 [10BDDA59] [57F08F00] CRC32 06 100,0 [0DE46B29] [D9CC6F1A] CRC32 07 100,0 [7E08F53B] [430932E3] CRC32 08 98,0 [7C15A40B] [23F7849C] CRC32 09 100,0 [D4ECAF8F] [EDC467CC] CRC32 10 100,0 [47A99B3D] [022C55BE] CRC32
источник: bzp01
Вы не можете начинать темы
Вы не можете отвечать на сообщения
Вы не можете редактировать свои сообщения
Вы не можете удалять свои сообщения
Вы не можете голосовать в опросах
Вы не можете прикреплять файлы к сообщениям
Вы можете скачивать файлы
!ВНИМАНИЕ!

Сайт не предоставляет электронные версии произведений, а занимается лишь коллекционированием и каталогизацией ссылок, присылаемых и публикуемых на форуме нашими читателями. Если вы являетесь правообладателем какого-либо представленного материала и не желаете, чтобы ссылка на него находилась в нашем каталоге, свяжитесь с нами, и мы незамедлительно удалим ее. Файлы для обмена на трекере предоставлены пользователями сайта, и администрация не несет ответственности за их содержание. Просьба не заливать файлы, защищенные авторскими правами, а также файлы нелегального содержания!

Искали программы, игры, дополнения, музыка mp3, аниме, аудио книги, журналы? Добро пожаловать на свободный торрент трекер Torrents, у нас можно скачать бесплатно, без смс и регистрации и прочих ограничений лучшие, отборные сборки программ, игр. Скачать торрентом не составит труда даже не опытному пользователю. Раздачи ежедневно обновляются, только лучшие и качественные раздачи, подробные описания и скриншоты. Огромная коллекция программ для работы со звуком, графикой, дизайном, а так же множество плагинов и инструментов к ним с подробной инструкцией и рекомендациями. Прошивки для навигаторов, карты. Разнообразные игры, для Windows, Linux. В коллекцие есть и старые игры любых жанров, Rpg, Action, Shooter, strategy Множество дополнений, модификаций, сценариев для популярных игр в жанре экш, рпг, гонки, стратегии, логические игры. Множество аддонов и сценариев для Microsoft Flight Simulator Большая коллекция книг, учебников. Если нет возможности купить печатное издание - смело скачивайте цифровую версию книги или, быть может, журнала. Не любите читать - можно загрузить бесплатно аудикнигу. Для веб дизайнеров и программистов так же найдется множество специализированного софта, таких как: редакторы с подсветкой, среды программирования, компоненты, системы управления базами данных, разнообразные скрипты и шаблоны. Не так давно у нас появился материал для автолюбителей и владельцев мото - оригинальные и неоригинальные каталоги запчастей, книги и журналы по ремонту и обслуживанию, видеоуроки, статьи по чип тюнингу, прошивкам. Процедура получения контента элементарная, достаточно просто скачать торрент файл и добавить его в загрузку в вашем торрент клиенте. Если у вас нет специального торрент клиента, вы можете его скачать у нас.