(Progressive Rock) [WEB] Martin Barre (Jethro Tull) - Roads Less Travelled - 2018, FLAC (tracks), lossless 

Цитировать
Martin Barre - Roads Less Travelled- Жанр: Progressive Rock
Носитель: WEB
Год издания: 2018
Издатель-лейбл: Cleopatra Records
Страна исполнителя: UK
Аудиокодек: FLAC (*.flac)
Тип рипа: tracks
Битрейт аудио: lossless
Продолжительность: 00:42:49
Источник: Сеть - купить
Наличие сканов: нет

Треклист:
01. Lone Wolf (4:04)
02. Out of Time (3:06)
03. On My Way (4:07)
04. Roads Less Travelled (4:27)
05. Badcore Blues (3:26)
06. Seattle (4:03)
07. For No Man (3:51)
08. (This Is) My Driving Song (3:41)
09. You Are an Angel (2:35)
10. Trinity (3:32)
11. And the Band Played On (6:01)

auCDtect

PERFORMER: auCDtect Task Manager, ver. 1.6.0 RC1 build 1.6.0.1Copyright (c) 2008-2010 y-soft. All rights reservedhttp://y-soft.org
ANALYZER: auCDtect: CD records authenticity detector, version 0.8.2Copyright (c) 2004 Oleg Berngardt. All rights reserved.Copyright (c) 2004 Alexander Djourik. All rights reserved.
FILE: 11 And the Band Played On.flac Size: 41459187 Hash: 7A9B5EEC997551ACADD90981367D9EB9 Accuracy: -m0 Conclusion: MPEG 95% Signature: 035BF6F935EF27624DECFB11AD92972014B83643FILE: 10 Trinity.flac Size: 19150857 Hash: F6483CDAAC86FADBF082686CFA374BC0 Accuracy: -m0 Conclusion: CDDA 100% Signature: C303F06F9292E26A1F243CCA58771A8D9A35D3E2FILE: 09 You Are an Angel.flac Size: 13777884 Hash: 7C4C97502505F9686FA39A1D3ED4E02F Accuracy: -m0 Conclusion: CDDA 100% Signature: 3134E8F1474274899F4E718ED579CB57D516D08CFILE: 08 (This Is) My Driving Song.flac Size: 26930493 Hash: E8DC2A36E4B1E9F3AD879E69AE61DF01 Accuracy: -m0 Conclusion: CDDA 100% Signature: E05C79D5175CA38CA0BB330770E06868AC063497FILE: 07 For No Man.flac Size: 21928425 Hash: 9DB2718559AB7DFE92AB08871FF2ED18 Accuracy: -m0 Conclusion: CDDA 43% Signature: 88E7DB26BEDFB8843F80D49C118E5FAE49238223FILE: 06 Seattle.flac Size: 27513199 Hash: EF78FFEB80D1988D05F623BC205D53E2 Accuracy: -m0 Conclusion: CDDA 100% Signature: DCB437F3D9992E2F12B9C8A62FE43539B3E5AB27FILE: 05 Badcore Blues.flac Size: 18308049 Hash: 15681864603F0621C95D06089578004D Accuracy: -m0 Conclusion: CDDA 100% Signature: 2916FB3442ACD140169F3284D00F450470E3DF24FILE: 04 Roads Less Travelled.flac Size: 31545036 Hash: EA24DC12534FC94E1420A612749926C8 Accuracy: -m0 Conclusion: CDDA 100% Signature: 8EF327943E8298DDD995D5F8C40D67366ABF9E43FILE: 03 On My Way.flac Size: 27904783 Hash: 3DC5ED071A20293631EAAC1356BF4721 Accuracy: -m0 Conclusion: CDDA 100% Signature: EDB813399E0EF5E508A26BB0129F07D815571186FILE: 02 Out of Time.flac Size: 20440969 Hash: BD3495D1FC19FAA44BEAB30D041160B7 Accuracy: -m0 Conclusion: CDDA 100% Signature: 00ECFD0E0E628AEB9D1A928D90820C3EB6C25164FILE: 01 Lone Wolf.flac Size: 28969180 Hash: EA4F7DBEE8ED964F942CA0507B3545CF Accuracy: -m0 Conclusion: CDDA 100% Signature: E6696D77B9BF7275F2F71BAC54925D0523258762

dr

foobar2000 1.4 / Замер динамического диапазона (DR) 1.1.1Дата отчёта:  2018-10-12 12:13:21
--------------------------------------------------------------------------------Анализ: Martin Barre / Roads Less Travelled--------------------------------------------------------------------------------
DR Пики RMS Продолжительность трека--------------------------------------------------------------------------------DR10 -0.11 дБ -12.25 дБ 4:04 01-Lone WolfDR10 -0.12 дБ -11.67 дБ 3:06 02-Out of TimeDR11 -0.11 дБ -12.66 дБ 4:07 03-On My WayDR11 -0.11 дБ -12.89 дБ 4:27 04-Roads Less TravelledDR11 -2.57 дБ -16.43 дБ 3:26 05-Badcore BluesDR11 -0.12 дБ -12.68 дБ 4:03 06-SeattleDR13 -0.12 дБ -14.69 дБ 3:51 07-For No ManDR10 -0.11 дБ -11.15 дБ 3:41 08-(This Is) My Driving SongDR10 -1.76 дБ -14.35 дБ 2:35 09-You Are an AngelDR14 -0.28 дБ -17.38 дБ 3:32 10-TrinityDR11 -0.11 дБ -12.21 дБ 6:01 11-And the Band Played On--------------------------------------------------------------------------------
Количество треков: 11Реальные значения DR: DR11
Частота: 44100 ГцКаналов: 2Разрядность: 16Битрейт: 913 кбит/сКодек: FLAC================================================================================
Вы не можете начинать темы
Вы не можете отвечать на сообщения
Вы не можете редактировать свои сообщения
Вы не можете удалять свои сообщения
Вы не можете голосовать в опросах
Вы не можете прикреплять файлы к сообщениям
Вы можете скачивать файлы
!ВНИМАНИЕ!

Сайт не предоставляет электронные версии произведений, а занимается лишь коллекционированием и каталогизацией ссылок, присылаемых и публикуемых на форуме нашими читателями. Если вы являетесь правообладателем какого-либо представленного материала и не желаете, чтобы ссылка на него находилась в нашем каталоге, свяжитесь с нами, и мы незамедлительно удалим ее. Файлы для обмена на трекере предоставлены пользователями сайта, и администрация не несет ответственности за их содержание. Просьба не заливать файлы, защищенные авторскими правами, а также файлы нелегального содержания!

Искали программы, игры, дополнения, музыка mp3, аниме, аудио книги, журналы? Добро пожаловать на свободный торрент трекер Torrents, у нас можно скачать бесплатно, без смс и регистрации и прочих ограничений лучшие, отборные сборки программ, игр. Скачать торрентом не составит труда даже не опытному пользователю. Раздачи ежедневно обновляются, только лучшие и качественные раздачи, подробные описания и скриншоты. Огромная коллекция программ для работы со звуком, графикой, дизайном, а так же множество плагинов и инструментов к ним с подробной инструкцией и рекомендациями. Прошивки для навигаторов, карты. Разнообразные игры, для Windows, Linux. В коллекцие есть и старые игры любых жанров, Rpg, Action, Shooter, strategy Множество дополнений, модификаций, сценариев для популярных игр в жанре экш, рпг, гонки, стратегии, логические игры. Множество аддонов и сценариев для Microsoft Flight Simulator Большая коллекция книг, учебников. Если нет возможности купить печатное издание - смело скачивайте цифровую версию книги или, быть может, журнала. Не любите читать - можно загрузить бесплатно аудикнигу. Для веб дизайнеров и программистов так же найдется множество специализированного софта, таких как: редакторы с подсветкой, среды программирования, компоненты, системы управления базами данных, разнообразные скрипты и шаблоны. Не так давно у нас появился материал для автолюбителей и владельцев мото - оригинальные и неоригинальные каталоги запчастей, книги и журналы по ремонту и обслуживанию, видеоуроки, статьи по чип тюнингу, прошивкам. Процедура получения контента элементарная, достаточно просто скачать торрент файл и добавить его в загрузку в вашем торрент клиенте. Если у вас нет специального торрент клиента, вы можете его скачать у нас.