(Progressive / Psychedelic / Hard Rock) [CD] Czar - Czar - 1970 (2005), FLAC (tracks+.cue), lossless {Akarma} 

Цитировать
Czar / Czar
Жанр: Progressive / Psychedelic / Hard Rock
Носитель: CD
Страна-производитель диска: Italy
Год издания: 1970 (2005)
Издатель (лейбл): Akarma
Номер по каталогу: AK 342
Страна группы: United Kingdom
Аудиокодек: FLAC (*.flac)
Тип рипа: tracks+.cue
Битрейт аудио: lossless
Продолжительность: 40:10
Источник: собственный рип
Наличие сканов в содержимом раздачи: да
Треклист:
1. Tread Softly on My Dreams 6:44
2. Cecelia 8:22
3. Follow Me 3:26
4. Dawning of a New Day 6:15
5. Beyond the Moon 3:51
6. Today 3:30
7. A Day in September 8:02

Лог создания рипа

Exact Audio Copy V1.0 beta 1 from 15. November 2010
EAC extraction logfile from 12. October 2012, 22:30
Czar / Czar
Used drive : Optiarc DVD RW AD-7240S Adapter: 2 ID: 1
Read mode : SecureUtilize accurate stream : YesDefeat audio cache : YesMake use of C2 pointers : No
Read offset correction : 48Overread into Lead-In and Lead-Out : NoFill up missing offset samples with silence : YesDelete leading and trailing silent blocks : NoNull samples used in CRC calculations : YesUsed interface : Native Win32 interface for Win NT & 2000Gap handling : Appended to previous track
Used output format : User Defined EncoderSelected bitrate : 32 kBit/sQuality : HighAdd ID3 tag : NoCommand line compressor : C:\Program Files (x86)\Exact Audio Copy New\FLAC\FLAC.EXEAdditional command line options : -8 -V -T "ARTIST=%a" -T "TITLE=%t" -T "ALBUM=%g" -T "DATE=%y" -T "TRACKNUMBER=%n" -T "GENRE=%m" -T "COMMENT=EAC" %s
TOC of the extracted CD
Track | Start | Length | Start sector | End sector --------------------------------------------------------- 1 | 0:00.00 | 6:43.59 | 0 | 30283 2 | 6:43.59 | 8:21.40 | 30284 | 67898 3 | 15:05.24 | 3:26.32 | 67899 | 83380 4 | 18:31.56 | 6:15.27 | 83381 | 111532 5 | 24:47.08 | 3:50.71 | 111533 | 128853 6 | 28:38.04 | 3:30.18 | 128854 | 144621 7 | 32:08.22 | 8:02.03 | 144622 | 180774
Track 1
Filename C:\Lossless\Czar - Czar (1970) [FLAC] {Akarma AK 342}\01 - Tread Softly on My Dreams.wav
Pre-gap length 0:00:02.00
Peak level 98.3 % Extraction speed 2.3 X Track quality 99.9 % Test CRC F10CC84F Copy CRC F10CC84F Track not present in AccurateRip database Copy OK
Track 2
Filename C:\Lossless\Czar - Czar (1970) [FLAC] {Akarma AK 342}\02 - Cecelia.wav
Pre-gap length 0:00:02.00
Peak level 98.3 % Extraction speed 3.0 X Track quality 100.0 % Test CRC BC077787 Copy CRC BC077787 Track not present in AccurateRip database Copy OK
Track 3
Filename C:\Lossless\Czar - Czar (1970) [FLAC] {Akarma AK 342}\03 - Follow Me.wav
Pre-gap length 0:00:02.00
Peak level 98.1 % Extraction speed 3.0 X Track quality 100.0 % Test CRC 3CAE4300 Copy CRC 3CAE4300 Track not present in AccurateRip database Copy OK
Track 4
Filename C:\Lossless\Czar - Czar (1970) [FLAC] {Akarma AK 342}\04 - Dawning of a New Day.wav
Pre-gap length 0:00:02.00
Peak level 98.2 % Extraction speed 3.6 X Track quality 100.0 % Test CRC DAAB6697 Copy CRC DAAB6697 Track not present in AccurateRip database Copy OK
Track 5
Filename C:\Lossless\Czar - Czar (1970) [FLAC] {Akarma AK 342}\05 - Beyond the Moon.wav
Pre-gap length 0:00:02.00
Peak level 90.5 % Extraction speed 3.6 X Track quality 100.0 % Test CRC 6283A10F Copy CRC 6283A10F Track not present in AccurateRip database Copy OK
Track 6
Filename C:\Lossless\Czar - Czar (1970) [FLAC] {Akarma AK 342}\06 - Today.wav
Pre-gap length 0:00:02.00
Peak level 84.5 % Extraction speed 3.7 X Track quality 100.0 % Test CRC 5F63CC2E Copy CRC 5F63CC2E Track not present in AccurateRip database Copy OK
Track 7
Filename C:\Lossless\Czar - Czar (1970) [FLAC] {Akarma AK 342}\07 - A Day in September.wav
Pre-gap length 0:00:02.00
Peak level 98.2 % Extraction speed 4.3 X Track quality 100.0 % Test CRC 7505E18F Copy CRC 7505E18F Track not present in AccurateRip database Copy OK
None of the tracks are present in the AccurateRip database
No errors occurred
End of status report
==== Log checksum C8F18CC2FF2CFCFEC62A542A13339260928D810840D16897DD1A690134A266EF ====

Содержание индексной карты (.CUE)

REM GENRE "Progressive / Psychedelic / Hard Rock"REM DATE 1970REM DISCID 4E096A07REM COMMENT "ExactAudioCopy v1.0b1"PERFORMER "Czar"TITLE "Czar"FILE "01 - Tread Softly on My Dreams.wav" WAVE  TRACK 01 AUDIO    TITLE "Tread Softly on My Dreams"    PERFORMER "Czar"    INDEX 01 00:00:00  TRACK 02 AUDIO    TITLE "Cecelia"    PERFORMER "Czar"    INDEX 00 06:41:59FILE "02 - Cecelia.wav" WAVE    INDEX 01 00:00:00  TRACK 03 AUDIO    TITLE "Follow Me"    PERFORMER "Czar"    INDEX 00 08:19:40FILE "03 - Follow Me.wav" WAVE    INDEX 01 00:00:00  TRACK 04 AUDIO    TITLE "Dawning of a New Day"    PERFORMER "Czar"    INDEX 00 03:24:32FILE "04 - Dawning of a New Day.wav" WAVE    INDEX 01 00:00:00  TRACK 05 AUDIO    TITLE "Beyond the Moon"    PERFORMER "Czar"    INDEX 00 06:13:27FILE "05 - Beyond the Moon.wav" WAVE    INDEX 01 00:00:00  TRACK 06 AUDIO    TITLE "Today"    PERFORMER "Czar"    INDEX 00 03:48:71FILE "06 - Today.wav" WAVE    INDEX 01 00:00:00  TRACK 07 AUDIO    TITLE "A Day in September"    PERFORMER "Czar"    INDEX 00 03:28:18FILE "07 - A Day in September.wav" WAVE    INDEX 01 00:00:00

Скриншот спектра частот

Akarma

Американское издание

Пиратское издание (предположительно, рип с винила)

О группе

Originally known as Tuesday's Children, this British outfit belong to the one-shot club of progressive groups who made just a single album before vanishing into the deep dark hole of rock 'n' roll obscurity. Happily, however, Czar's self-titled debut is a real treat. Fans of heavy(ish) prog, organ-baked psychedelia and colourful early-seventies rock should no doubt warm to the album's seven powerful tracks, the combination of singer Paul Kendrick's cod-operatic vocals, Mick Ware's crunchy riffs and Bob Hodges meaty organ(!) not unlike an acid- dipped jam between early Deep Purple and fellow one-off heavy proggers Aardvark. The album starts strongly with the catchy histrionics of 'Tread Softly On My Dreams', one of those pieces that sounds like it should be a lot more famous than it actually is, whilst Hodges thickly-layered organs coat the slow-burning 'A Day In September' with an almost Pink Floyd-style ambience. Elsewhere, 'Today' fires up a nice mixture of mystical blues and lysergic pop melodies, whilst the excellent 'Dawning Of A New Day' features some scintillating guitar shredding from Ware. As we all know, the oft-used tag 'lost classic' is banded about all too readily in these post-CD, 21st century reissue days, and half the time the album's were 'lost' for a reason. 'Czar', however, deserves it's readmission into the musical arena after thirty-odd years of obscurity and comes highly recommended. Ballsy, energetic and highly enjoyable hard-edged prog, its a pity that Czar didn't get the breaks they needed first time around. A real pity.
progarchives.com (by stefro)

Состав

Bob Hodges — mellotron, piano, organ, celesta, harpsichord, vocals
Del Gough — drums
Paul Kendrick — bass, acoustic guitar, vocals
Mick Ware — guitar, acoustic guitar, vocals
Вы не можете начинать темы
Вы не можете отвечать на сообщения
Вы не можете редактировать свои сообщения
Вы не можете удалять свои сообщения
Вы не можете голосовать в опросах
Вы не можете прикреплять файлы к сообщениям
Вы можете скачивать файлы
!ВНИМАНИЕ!

Сайт не предоставляет электронные версии произведений, а занимается лишь коллекционированием и каталогизацией ссылок, присылаемых и публикуемых на форуме нашими читателями. Если вы являетесь правообладателем какого-либо представленного материала и не желаете, чтобы ссылка на него находилась в нашем каталоге, свяжитесь с нами, и мы незамедлительно удалим ее. Файлы для обмена на трекере предоставлены пользователями сайта, и администрация не несет ответственности за их содержание. Просьба не заливать файлы, защищенные авторскими правами, а также файлы нелегального содержания!

Искали программы, игры, дополнения, музыка mp3, аниме, аудио книги, журналы? Добро пожаловать на свободный торрент трекер Torrents, у нас можно скачать бесплатно, без смс и регистрации и прочих ограничений лучшие, отборные сборки программ, игр. Скачать торрентом не составит труда даже не опытному пользователю. Раздачи ежедневно обновляются, только лучшие и качественные раздачи, подробные описания и скриншоты. Огромная коллекция программ для работы со звуком, графикой, дизайном, а так же множество плагинов и инструментов к ним с подробной инструкцией и рекомендациями. Прошивки для навигаторов, карты. Разнообразные игры, для Windows, Linux. В коллекцие есть и старые игры любых жанров, Rpg, Action, Shooter, strategy Множество дополнений, модификаций, сценариев для популярных игр в жанре экш, рпг, гонки, стратегии, логические игры. Множество аддонов и сценариев для Microsoft Flight Simulator Большая коллекция книг, учебников. Если нет возможности купить печатное издание - смело скачивайте цифровую версию книги или, быть может, журнала. Не любите читать - можно загрузить бесплатно аудикнигу. Для веб дизайнеров и программистов так же найдется множество специализированного софта, таких как: редакторы с подсветкой, среды программирования, компоненты, системы управления базами данных, разнообразные скрипты и шаблоны. Не так давно у нас появился материал для автолюбителей и владельцев мото - оригинальные и неоригинальные каталоги запчастей, книги и журналы по ремонту и обслуживанию, видеоуроки, статьи по чип тюнингу, прошивкам. Процедура получения контента элементарная, достаточно просто скачать торрент файл и добавить его в загрузку в вашем торрент клиенте. Если у вас нет специального торрент клиента, вы можете его скачать у нас.