(Progressive Rock) [CD] Glencoe - Glencoe - 1972 (Prog Temple 2016), FLAC (image+.cue), lossless 

Цитировать
Glencoe - Glencoe
Жанр: Progressive Rock
Страна-производитель диска: UK?
Год издания диска: 2016
Издатель (лейбл): Prog Temple
Номер по каталогу: PTCD 8061
Страна: UK
Аудиокодек: FLAC (*.flac)
Тип рипа: image+.cue
Битрейт аудио: lossless
Продолжительность: 00:44:20
Источник (релизер): Sket4er
Наличие сканов в содержимом раздачи: да
Треклист:
01. Airport (Graham Maitland, Reed) 05:04
02. Look Me In The Eye (Graham Maitland, Reed) 04:15
03. Lifeline (Graham Maitland, Reed) 05:45
04. Telephonia (John Turnbull) 05:02
05. It's (John Turnbull) 05:40
06. Book Me For The Flight (Graham Maitland) 05:26
07. Hay Fever (John Turnbull) 04:44
08. Questions (Graham Maitland) 03:24
09. Sinking Down A Well (John Turnbull, Micky Gallagher) 05:00

Лог создания рипа

Exact Audio Copy V1.3 from 2. September 2016
EAC extraction logfile from 13. October 2018, 15:29
Glencoe / Glencoe
Used drive : TSSTcorpCDDVDW SH-224DB Adapter: 1 ID: 0
Read mode : SecureUtilize accurate stream : YesDefeat audio cache : YesMake use of C2 pointers : No
Read offset correction : 6Overread into Lead-In and Lead-Out : NoFill up missing offset samples with silence : YesDelete leading and trailing silent blocks : NoNull samples used in CRC calculations : YesUsed interface : Native Win32 interface for Win NT & 2000
Used output format : User Defined EncoderSelected bitrate : 1024 kBit/sQuality : HighAdd ID3 tag : NoCommand line compressor : C:\Program Files (x86)\Exact Audio Copy\win64\flac.exeAdditional command line options : -8 -V -T "ARTIST=%artist%" -T "TITLE=%title%" -T "ALBUM=%albumtitle%" -T "DATE=%year%" -T "TRACKNUMBER=%tracknr%" -T "GENRE=%genre%" -T "COMMENT=%comment%" %source% -o %dest%
TOC of the extracted CD
Track | Start | Length | Start sector | End sector --------------------------------------------------------- 1 | 0:00.00 | 5:09.37 | 0 | 23211 2 | 5:09.37 | 4:15.09 | 23212 | 42345 3 | 9:24.46 | 5:47.07 | 42346 | 68377 4 | 15:11.53 | 5:02.36 | 68378 | 91063 5 | 20:14.14 | 5:41.13 | 91064 | 116651 6 | 25:55.27 | 5:24.57 | 116652 | 141008 7 | 31:20.09 | 4:44.01 | 141009 | 162309 8 | 36:04.10 | 3:21.50 | 162310 | 177434 9 | 39:25.60 | 4:59.54 | 177435 | 199913
Range status and errors
Selected range
Filename F:\Sket4er\Glencoe – Glencoe (1972) 2016\Glencoe - Glencoe.wav
Peak level 94.4 % Extraction speed 3.0 X Range quality 100.0 % Test CRC 56B4F04F Copy CRC 56B4F04F Copy OK
No errors occurred
AccurateRip summary
Track 1 not present in databaseTrack 2 not present in databaseTrack 3 not present in databaseTrack 4 not present in databaseTrack 5 not present in databaseTrack 6 not present in databaseTrack 7 not present in databaseTrack 8 not present in databaseTrack 9 not present in database
None of the tracks are present in the AccurateRip database
End of status report
---- CUETools DB Plugin V2.1.6
[CTDB TOCID: WsO0fsa_ch.gWd7ipizYFUKZGw0-] foundSubmit result: WsO0fsa_ch.gWd7ipizYFUKZGw0- has been confirmedTrack | CTDB Status 1 | (4/4) Accurately ripped 2 | (4/4) Accurately ripped 3 | (4/4) Accurately ripped 4 | (4/4) Accurately ripped 5 | (4/4) Accurately ripped 6 | (4/4) Accurately ripped 7 | (4/4) Accurately ripped 8 | (4/4) Accurately ripped 9 | (4/4) Accurately ripped
==== Log checksum 028BAA4A9A0386C4551DBB57FAEBBF55ACC7958BD1D1AB36D054FB7F6E3D5E46 ====

Содержание индексной карты (.CUE)

REM GENRE RockREM DATE 1972REM DISCID 750A6909REM COMMENT "ExactAudioCopy v1.3"PERFORMER "Glencoe "TITLE "Glencoe "REM COMPOSER ""FILE "Glencoe  - Glencoe.flac" WAVE  TRACK 01 AUDIO    TITLE "Airport"    PERFORMER "Glencoe "    REM COMPOSER ""    INDEX 01 00:00:00  TRACK 02 AUDIO    TITLE "Look Me In The Eye"    PERFORMER "Glencoe "    REM COMPOSER ""    INDEX 01 05:09:37  TRACK 03 AUDIO    TITLE "Lifeline"    PERFORMER "Glencoe "    REM COMPOSER ""    INDEX 01 09:24:46  TRACK 04 AUDIO    TITLE "Telephonia"    PERFORMER "Glencoe "    REM COMPOSER ""    INDEX 01 15:11:53  TRACK 05 AUDIO    TITLE "It's"    PERFORMER "Glencoe "    REM COMPOSER ""    INDEX 01 20:14:14  TRACK 06 AUDIO    TITLE "Book Me For The Flight"    PERFORMER "Glencoe "    REM COMPOSER ""    INDEX 01 25:55:27  TRACK 07 AUDIO    TITLE "Hay Fever"    PERFORMER "Glencoe "    REM COMPOSER ""    INDEX 01 31:20:09  TRACK 08 AUDIO    TITLE "Questions"    PERFORMER "Glencoe "    REM COMPOSER ""    INDEX 01 36:04:10  TRACK 09 AUDIO    TITLE "Sinking Down A Well"    PERFORMER "Glencoe "    REM COMPOSER ""    INDEX 01 39:25:60

Лог проверки качества

-----------------------
DON'T MODIFY THIS FILE
-----------------------
PERFORMER: auCDtect Task Manager, ver. 1.5.1RC4 build 1.5.1.5Copyright (c) 2008-2010 y-soft. All rights reservedhttp://y-soft.org
ANALYZER: auCDtect: CD records authenticity detector, version 0.8.2Copyright (c) 2004 Oleg Berngardt. All rights reserved.Copyright (c) 2004 Alexander Djourik. All rights reserved.
FILE: Glencoe - Glencoe.flac Size: 259635758 Hash: D6B17C3D223104D3F46C551428247BDE Accuracy: -m0 Conclusion: CDDA 43% Signature: 1B6F8BBC79F09F1FDAAE1706A896B072E99C961E

DR log

foobar2000 1.3.9 / Замер динамического диапазона (DR) 1.1.1Дата отчёта:  2018-10-24 16:12:53
--------------------------------------------------------------------------------Анализ: Glencoe / Glencoe--------------------------------------------------------------------------------
DR Пики RMS Продолжительность трека--------------------------------------------------------------------------------DR12 -0.86 дБ -15.50 дБ 5:09 1-AirportDR12 -0.49 дБ -15.88 дБ 4:15 2-Look Me In The EyeDR12 -0.49 дБ -15.60 дБ 5:47 3-LifelineDR13 -0.50 дБ -16.76 дБ 5:02 4-TelephoniaDR13 -0.54 дБ -16.24 дБ 5:41 5-It'sDR12 -0.49 дБ -16.51 дБ 5:25 6-Book Me For The FlightDR13 -0.53 дБ -16.64 дБ 4:44 7-Hay FeverDR13 -0.67 дБ -17.92 дБ 3:22 8-QuestionsDR13 -0.53 дБ -16.31 дБ 5:00 9-Sinking Down A Well--------------------------------------------------------------------------------
Количество треков: 9Реальные значения DR: DR13
Частота: 44100 ГцКаналов: 2Разрядность: 16Битрейт: 779 кбит/сКодек: FLAC================================================================================
Доп. информация

Состав

John Turnbull - Guitar, Vocals
Graham Maitland - Keyboards, Vocals
Norman Watt-Roy - Bass, Vocals
Stewart Francis - Drums, Vocals

Об исполнителе

British progressive rock band, early 1970s. Glencoe was one of those bands people tend to overlook, which is a pity since they have a surplus of significant music to offer,
The second and final album from this British prog band originally appeared in August 1973. Glencoe should have been a great success, gigging extensively their live act was superb, quite heavy and very loud! An effective mixing of speed, power and melody that sits very comfortably together. Graham Maitland's piano work sets a driving air to their music that is truly enjoyable. With the added rhythm of Norman Watt-Roy on bass and Stewart Francis on drums, the group's sound is filled to capacity. They disbanded in February 1974 and in March 1974 a third Glencoe LP was made with a different line up and name as “Loving Awareness”.
http://www.discogs.com/artist/1784669-Glencoe
http://therockasteria.blogspot.com/2017/11/glencoe-glencoe-1972-uk-magnificent.html
Вы не можете начинать темы
Вы не можете отвечать на сообщения
Вы не можете редактировать свои сообщения
Вы не можете удалять свои сообщения
Вы не можете голосовать в опросах
Вы не можете прикреплять файлы к сообщениям
Вы можете скачивать файлы
!ВНИМАНИЕ!

Сайт не предоставляет электронные версии произведений, а занимается лишь коллекционированием и каталогизацией ссылок, присылаемых и публикуемых на форуме нашими читателями. Если вы являетесь правообладателем какого-либо представленного материала и не желаете, чтобы ссылка на него находилась в нашем каталоге, свяжитесь с нами, и мы незамедлительно удалим ее. Файлы для обмена на трекере предоставлены пользователями сайта, и администрация не несет ответственности за их содержание. Просьба не заливать файлы, защищенные авторскими правами, а также файлы нелегального содержания!

Искали программы, игры, дополнения, музыка mp3, аниме, аудио книги, журналы? Добро пожаловать на свободный торрент трекер Torrents, у нас можно скачать бесплатно, без смс и регистрации и прочих ограничений лучшие, отборные сборки программ, игр. Скачать торрентом не составит труда даже не опытному пользователю. Раздачи ежедневно обновляются, только лучшие и качественные раздачи, подробные описания и скриншоты. Огромная коллекция программ для работы со звуком, графикой, дизайном, а так же множество плагинов и инструментов к ним с подробной инструкцией и рекомендациями. Прошивки для навигаторов, карты. Разнообразные игры, для Windows, Linux. В коллекцие есть и старые игры любых жанров, Rpg, Action, Shooter, strategy Множество дополнений, модификаций, сценариев для популярных игр в жанре экш, рпг, гонки, стратегии, логические игры. Множество аддонов и сценариев для Microsoft Flight Simulator Большая коллекция книг, учебников. Если нет возможности купить печатное издание - смело скачивайте цифровую версию книги или, быть может, журнала. Не любите читать - можно загрузить бесплатно аудикнигу. Для веб дизайнеров и программистов так же найдется множество специализированного софта, таких как: редакторы с подсветкой, среды программирования, компоненты, системы управления базами данных, разнообразные скрипты и шаблоны. Не так давно у нас появился материал для автолюбителей и владельцев мото - оригинальные и неоригинальные каталоги запчастей, книги и журналы по ремонту и обслуживанию, видеоуроки, статьи по чип тюнингу, прошивкам. Процедура получения контента элементарная, достаточно просто скачать торрент файл и добавить его в загрузку в вашем торрент клиенте. Если у вас нет специального торрент клиента, вы можете его скачать у нас.