(Progressive Rock) [WEB] Inistekar - Trigonobralistes Tome Second - 2017, FLAC (tracks), lossless 

Цитировать
Inistekar / Trigonobralistes Tome Second
Жанр: Progressive Rock
Носитель: WEB
Год издания: 2017
Страна исполнителя (группы): Canada
Аудиокодек: FLAC (*.flac)
Тип рипа: tracks
Битрейт аудио: lossless
Продолжительность: 01:04:16
Источник (релизер): Bandcamp
Наличие сканов в содержимом раздачи: нет

01. La Proximité [00:01:23]
02. La Trajectoire Initiale [00:06:10]
03. Nous De La Voûte Céleste [00:04:49]
04. L'Épreuve Du Pont [00:02:12]
05. Équilibre Un [00:05:55]
06. Les Facultés Le Talent Et Les Dons [00:04:52]
07. Ma Réplique [00:09:37]
08. Équilibre Deux [00:03:43]
09. La Profanation [00:04:18]
10. La Divergence [00:04:29]
11. Équilibre Trois [00:03:46]
12. Au Seuil Des Équidistances [00:08:14]
Bonus Track:
13. Dans L'Espace Libre Et Froid [00:04:42]
Released April 18, 2017
Track "Dans L'Espace Libre Et Froid" released October 10, 2018--

Состав

Sylvain Leblanc: Basse, Voix, Violon
Pierre Donckerwolcke: Batterie, Percussion, Voix, Flûte
Jean-Claude Roy: Guitare, Voix, Mandoline
Martine Auger: Voix
Élisabeth Blier: Voix
Sylvain Arsenault: Solo d'orgue dans La Trajectoire Initiale

Лог проверки качества

-----------------------
DON'T MODIFY THIS FILE
-----------------------
PERFORMER: auCDtect Task Manager, ver. 1.6.0 RC1 build 1.6.0.1Copyright (c) 2008-2010 y-soft. All rights reservedhttp://y-soft.org
ANALYZER: auCDtect: CD records authenticity detector, version 0.8.2Copyright (c) 2004 Oleg Berngardt. All rights reserved.Copyright (c) 2004 Alexander Djourik. All rights reserved.
FILE: 13. Dans L'Espace Libre Et Froid (Bonus Track).flac Size: 32729421 Hash: 0AA1907EB1C4141786B085CB64CEE5B0 Accuracy: -m0 Conclusion: CDDA 100% Signature: 0AA9F04F5DD659EDEF30121241918EA4064256E7FILE: 12. Au Seuil Des Équidistances.flac Size: 53702793 Hash: 599766EDB07503C347085C0A6F23F643 Accuracy: -m0 Conclusion: CDDA 100% Signature: DF4F01DFAF44013E5B88AF09DA144BA40F321651FILE: 11. Équilibre Trois.flac Size: 27503070 Hash: 8CD07B92D44370E5061E7F7A8ABDCA94 Accuracy: -m0 Conclusion: CDDA 100% Signature: 4289D9B812D2CF8C70A32CCBEB6A449A47B8F5B6FILE: 10. La Divergence.flac Size: 32750019 Hash: 5542D8BAFFAC8FF2FFE9557E3315CA0E Accuracy: -m0 Conclusion: CDDA 100% Signature: FDF3548540B5D7B1C41D144209785F35F568A2A7FILE: 09. La Profanation.flac Size: 29138842 Hash: B31ADB19EAD035382FFEF8F60C1CE7FC Accuracy: -m0 Conclusion: CDDA 100% Signature: F8FC0D39D26B4764AEAE0E6EF68516621F2118ACFILE: 08. Équilibre Deux.flac Size: 23150818 Hash: D1FEF3AA897F1A4209DFD87E7D0C744D Accuracy: -m0 Conclusion: CDDA 100% Signature: 458F385DC8E865DCA11D62C4591F7E94CD73EE76FILE: 07. Ma Réplique.flac Size: 65185766 Hash: 2810CE7EDD9B3AFF6A216D94B859105D Accuracy: -m0 Conclusion: CDDA 100% Signature: A92D9D779C0395DE24518006E391FC0B415648D3FILE: 06. Les Facultés Le Talent Et Les Dons.flac Size: 34331947 Hash: 4915E4D0F04B9CF65413F7010A8E5A5C Accuracy: -m0 Conclusion: CDDA 100% Signature: 57681BDBD8BBD3CD038EA98C78D6857A11149C77FILE: 05. Équilibre Un.flac Size: 40351428 Hash: E5294F0F3B6870FF5C508D0FC57B0FD8 Accuracy: -m0 Conclusion: CDDA 99% Signature: 51312F89617B326DAAEA37252F7CE182DF7ECCE4FILE: 04. L'Épreuve Du Pont.flac Size: 14678247 Hash: 58B95F14D70574BD2989E44B0AFD807F Accuracy: -m0 Conclusion: CDDA 100% Signature: CC82305D79D96EEA5C5388F1ADFBFBBA2CFE7FD3FILE: 03. Nous De La Voûte Céleste.flac Size: 37022450 Hash: B03F9168BD521F8AA3A577F1360DE228 Accuracy: -m0 Conclusion: CDDA 100% Signature: 21EBE3360C7580373F0AF5E4066070F592D092F1FILE: 02. La Trajectoire Initiale.flac Size: 47275477 Hash: 4690FB7790AB0FBC065E0029096E447C Accuracy: -m0 Conclusion: CDDA 100% Signature: 8A4EFB038CD7249DA6A010139C80B481A22989E8FILE: 01. La Proximité.flac Size: 7763562 Hash: C739CA606CFC3F98508DB37FD1BCC7D3 Accuracy: -m0 Conclusion: CDDA 100% Signature: 04A3ABE7D45FF1BB33CC5A0B9D948D6EA8F534E8

DRM log

foobar2000 1.3.12 / Dynamic Range Meter 1.1.1log date: 2018-10-25 07:37:21
--------------------------------------------------------------------------------Analyzed: Inistekar / Trigonobralistes Tome Second--------------------------------------------------------------------------------
DR Peak RMS Duration Track--------------------------------------------------------------------------------DR7 -0.10 dB -9.90 dB 1:24 01-La ProximitéDR6 0.00 dB -7.44 dB 6:10 02-La Trajectoire InitialeDR6 0.00 dB -7.47 dB 4:50 03-Nous De La Voûte CélesteDR9 -0.07 dB -11.75 dB 2:12 04-L'Épreuve Du PontDR5 0.00 dB -7.45 dB 5:56 05-Équilibre UnDR6 0.00 dB -8.31 dB 4:52 06-Les Facultés Le Talent Et Les DonsDR6 0.00 dB -8.15 dB 9:38 07-Ma RépliqueDR8 0.00 dB -10.41 dB 3:44 08-Équilibre DeuxDR7 0.00 dB -9.25 dB 4:18 09-La ProfanationDR6 0.00 dB -7.77 dB 4:29 10-La DivergenceDR6 0.00 dB -7.38 dB 3:46 11-Équilibre TroisDR7 0.00 dB -9.33 dB 8:15 12-Au Seuil Des ÉquidistancesDR7 0.00 dB -8.77 dB 4:42 13-Dans L'Espace Libre Et Froid (Bonus Track)--------------------------------------------------------------------------------
Number of tracks: 13Official DR value: DR7
Samplerate: 44100 HzChannels: 2Bits per sample: 16Bitrate: 928 kbpsCodec: FLAC================================================================================
--
Вы не можете начинать темы
Вы не можете отвечать на сообщения
Вы не можете редактировать свои сообщения
Вы не можете удалять свои сообщения
Вы не можете голосовать в опросах
Вы не можете прикреплять файлы к сообщениям
Вы можете скачивать файлы
!ВНИМАНИЕ!

Сайт не предоставляет электронные версии произведений, а занимается лишь коллекционированием и каталогизацией ссылок, присылаемых и публикуемых на форуме нашими читателями. Если вы являетесь правообладателем какого-либо представленного материала и не желаете, чтобы ссылка на него находилась в нашем каталоге, свяжитесь с нами, и мы незамедлительно удалим ее. Файлы для обмена на трекере предоставлены пользователями сайта, и администрация не несет ответственности за их содержание. Просьба не заливать файлы, защищенные авторскими правами, а также файлы нелегального содержания!

Искали программы, игры, дополнения, музыка mp3, аниме, аудио книги, журналы? Добро пожаловать на свободный торрент трекер Torrents, у нас можно скачать бесплатно, без смс и регистрации и прочих ограничений лучшие, отборные сборки программ, игр. Скачать торрентом не составит труда даже не опытному пользователю. Раздачи ежедневно обновляются, только лучшие и качественные раздачи, подробные описания и скриншоты. Огромная коллекция программ для работы со звуком, графикой, дизайном, а так же множество плагинов и инструментов к ним с подробной инструкцией и рекомендациями. Прошивки для навигаторов, карты. Разнообразные игры, для Windows, Linux. В коллекцие есть и старые игры любых жанров, Rpg, Action, Shooter, strategy Множество дополнений, модификаций, сценариев для популярных игр в жанре экш, рпг, гонки, стратегии, логические игры. Множество аддонов и сценариев для Microsoft Flight Simulator Большая коллекция книг, учебников. Если нет возможности купить печатное издание - смело скачивайте цифровую версию книги или, быть может, журнала. Не любите читать - можно загрузить бесплатно аудикнигу. Для веб дизайнеров и программистов так же найдется множество специализированного софта, таких как: редакторы с подсветкой, среды программирования, компоненты, системы управления базами данных, разнообразные скрипты и шаблоны. Не так давно у нас появился материал для автолюбителей и владельцев мото - оригинальные и неоригинальные каталоги запчастей, книги и журналы по ремонту и обслуживанию, видеоуроки, статьи по чип тюнингу, прошивкам. Процедура получения контента элементарная, достаточно просто скачать торрент файл и добавить его в загрузку в вашем торрент клиенте. Если у вас нет специального торрент клиента, вы можете его скачать у нас.