(Trip-Hop, Downtempo, Deep House) [CD] Men I Trust - Tailwhip (EP, Deluxe Edition) - 2018, FLAC (tracks+.cue), lossless 

Цитировать
Men I Trust / Tailwhip (EP, Deluxe Edition )
Жанр: Trip-Hop, Downtempo, Deep House
Носитель: CD
Год издания: 2018
Издатель (лейбл): Return To Analog
Номер по каталогу: RTACD-003
Страна исполнителя (группы): Canada
Аудиокодек: FLAC (*.flac)
Тип рипа: tracks+.cue
Битрейт аудио: lossless
Продолжительность: 41:36
Источник (релизер): REDACTED
Наличие сканов в содержимом раздачи: нет
Треклист:
01. Tailwhip (03:45)
02. Show Me How (03:35)
03. I Hope To Be Around (03:26)
04. You Deserve This (03:05)
05. Break For Lovers (Live) (03:26)
06. Lauren (Live) (03:56)
07. Tailwhip (Live) (03:55)
08. You Deserve This (Live) (03:10)
09. I Hope To Be Around (Live) (03:55)
10. Lauren "Duo Version" (03:57)
11. I Hope To Be Around (Live Solo) (03:36)
12. Sad Organ (01:50)

Лог создания рипа

Exact Audio Copy V1.3 from 2. September 2016
EAC extraction logfile from 18. October 2018, 15:07
Men I Trust / Tailwhip Deluxe
Used drive : hp DVDRW DU8A6SH Adapter: 1 ID: 0
Read mode : SecureUtilize accurate stream : YesDefeat audio cache : YesMake use of C2 pointers : No
Read offset correction : 6Overread into Lead-In and Lead-Out : NoFill up missing offset samples with silence : YesDelete leading and trailing silent blocks : NoNull samples used in CRC calculations : YesUsed interface : Native Win32 interface for Win NT & 2000Gap handling : Appended to previous track
Used output format : User Defined EncoderSelected bitrate : 1024 kBit/sQuality : HighAdd ID3 tag : NoCommand line compressor : C:\Program Files (x86)\foobar2000\encoders\flac.exeAdditional command line options : -8 -V -T "ARTIST=%artist%" -T "TITLE=%title%" -T "ALBUM=%albumtitle%" -T "DATE=%year%" -T "TRACKNUMBER=%tracknr%" -T "GENRE=%genre%" -T "PERFORMER=%albuminterpret%" -T "COMPOSER=%composer%" %haslyrics%--tag-from-file=LYRICS="%lyricsfile%"%haslyrics% -T "ALBUMARTIST=%albumartist%" -T "DISCNUMBER=%cdnumber%" -T "TOTALDISCS=%totalcds%" -T "TOTALTRACKS=%numtracks%" -T "COMMENT=%comment%" %source% -o %dest%
TOC of the extracted CD
Track | Start | Length | Start sector | End sector --------------------------------------------------------- 1 | 0:00.00 | 3:45.36 | 0 | 16910 2 | 3:45.36 | 3:35.17 | 16911 | 33052 3 | 7:20.53 | 3:26.05 | 33053 | 48507 4 | 10:46.58 | 3:05.56 | 48508 | 62438 5 | 13:52.39 | 3:26.01 | 62439 | 77889 6 | 17:18.40 | 3:56.00 | 77890 | 95589 7 | 21:14.40 | 3:55.00 | 95590 | 113214 8 | 25:09.40 | 3:10.13 | 113215 | 127477 9 | 28:19.53 | 3:55.02 | 127478 | 145104 10 | 32:14.55 | 3:57.19 | 145105 | 162898 11 | 36:11.74 | 3:36.16 | 162899 | 179114 12 | 39:48.15 | 1:50.43 | 179115 | 187407
Track 1
Filename C:\EAC RIPS\Men I Trust ‎- Tailwhip Deluxe (2018) {RTACD-003} [FLAC]\01 - Tailwhip.wav
Pre-gap length 0:00:02.00
Peak level 98.7 % Extraction speed 2.6 X Track quality 100.0 % Test CRC B7A19C1E Copy CRC B7A19C1E Track not present in AccurateRip database Copy OK
Track 2
Filename C:\EAC RIPS\Men I Trust ‎- Tailwhip Deluxe (2018) {RTACD-003} [FLAC]\02 - Show Me How.wav
Peak level 98.7 % Extraction speed 2.8 X Track quality 100.0 % Test CRC 9CE39622 Copy CRC 9CE39622 Track not present in AccurateRip database Copy OK
Track 3
Filename C:\EAC RIPS\Men I Trust ‎- Tailwhip Deluxe (2018) {RTACD-003} [FLAC]\03 - I Hope To Be Around.wav
Peak level 98.7 % Extraction speed 3.0 X Track quality 100.0 % Test CRC 0167FB1C Copy CRC 0167FB1C Track not present in AccurateRip database Copy OK
Track 4
Filename C:\EAC RIPS\Men I Trust ‎- Tailwhip Deluxe (2018) {RTACD-003} [FLAC]\04 - You Deserve This.wav
Peak level 98.7 % Extraction speed 3.1 X Track quality 100.0 % Test CRC 8E43D90F Copy CRC 8E43D90F Track not present in AccurateRip database Copy OK
Track 5
Filename C:\EAC RIPS\Men I Trust ‎- Tailwhip Deluxe (2018) {RTACD-003} [FLAC]\05 - Break For Lovers (Live).wav
Peak level 98.7 % Extraction speed 3.4 X Track quality 100.0 % Test CRC E3043905 Copy CRC E3043905 Track not present in AccurateRip database Copy OK
Track 6
Filename C:\EAC RIPS\Men I Trust ‎- Tailwhip Deluxe (2018) {RTACD-003} [FLAC]\06 - Lauren (Live).wav
Peak level 98.7 % Extraction speed 3.7 X Track quality 100.0 % Test CRC 01E43726 Copy CRC 01E43726 Track not present in AccurateRip database Copy OK
Track 7
Filename C:\EAC RIPS\Men I Trust ‎- Tailwhip Deluxe (2018) {RTACD-003} [FLAC]\07 - Tailwhip (Live).wav
Peak level 97.2 % Extraction speed 3.8 X Track quality 100.0 % Test CRC D309F964 Copy CRC D309F964 Track not present in AccurateRip database Copy OK
Track 8
Filename C:\EAC RIPS\Men I Trust ‎- Tailwhip Deluxe (2018) {RTACD-003} [FLAC]\08 - You Deserve This (Live).wav
Peak level 98.7 % Extraction speed 3.9 X Track quality 100.0 % Test CRC FC55187C Copy CRC FC55187C Track not present in AccurateRip database Copy OK
Track 9
Filename C:\EAC RIPS\Men I Trust ‎- Tailwhip Deluxe (2018) {RTACD-003} [FLAC]\09 - I Hope To Be Around (Live).wav
Peak level 98.7 % Extraction speed 3.5 X Track quality 99.9 % Test CRC 64BE8301 Copy CRC 64BE8301 Track not present in AccurateRip database Copy OK
Track 10
Filename C:\EAC RIPS\Men I Trust ‎- Tailwhip Deluxe (2018) {RTACD-003} [FLAC]\10 - Lauren ''Duo Version''.wav
Peak level 98.7 % Extraction speed 4.4 X Track quality 100.0 % Test CRC 2B36DC19 Copy CRC 2B36DC19 Track not present in AccurateRip database Copy OK
Track 11
Filename C:\EAC RIPS\Men I Trust ‎- Tailwhip Deluxe (2018) {RTACD-003} [FLAC]\11 - I Hope To Be Around (Live Solo).wav
Peak level 98.7 % Extraction speed 4.5 X Track quality 100.0 % Test CRC 356C1751 Copy CRC 356C1751 Track not present in AccurateRip database Copy OK
Track 12
Filename C:\EAC RIPS\Men I Trust ‎- Tailwhip Deluxe (2018) {RTACD-003} [FLAC]\12 - Sad Organn.wav
Peak level 98.7 % Extraction speed 2.9 X Track quality 99.9 % Test CRC 000E20C5 Copy CRC 000E20C5 Track not present in AccurateRip database Copy OK
None of the tracks are present in the AccurateRip database
No errors occurred
End of status report
---- CUETools DB Plugin V2.1.6
[CTDB TOCID: nukqiAwevNrJSyhqzVUl5P_FZtA-] disk not present in databaseSubmit result: nukqiAwevNrJSyhqzVUl5P_FZtA- has been uploaded
==== Log checksum 02B0F1C6555B11D95E1E9B7971464039CE71EE8F8E0F86A49A2BF33A8C920972 ====

Содержание индексной карты (.CUE)

REM GENRE PopREM DATE 2018REM DISCID 8C09C20CREM COMMENT "ExactAudioCopy v1.3"PERFORMER "Men I Trust"TITLE "Tailwhip Deluxe"REM COMPOSER ""FILE "01 - Tailwhip.wav" WAVE  TRACK 01 AUDIO    TITLE "Tailwhip"    PERFORMER "Men I Trust"    REM COMPOSER ""    ISRC TCADF1750478    FLAGS DCP    INDEX 01 00:00:00FILE "02 - Show Me How.wav" WAVE  TRACK 02 AUDIO    TITLE "Show Me How"    PERFORMER "Men I Trust"    REM COMPOSER ""    ISRC TCADM1873570    FLAGS DCP    INDEX 01 00:00:00FILE "03 - I Hope To Be Around.wav" WAVE  TRACK 03 AUDIO    TITLE "I Hope To Be Around"    PERFORMER "Men I Trust"    REM COMPOSER ""    ISRC TCADI1781637    FLAGS DCP    INDEX 01 00:00:00FILE "04 - You Deserve This.wav" WAVE  TRACK 04 AUDIO    TITLE "You Deserve This"    PERFORMER "Men I Trust"    REM COMPOSER ""    ISRC USCGJ1795830    FLAGS DCP    INDEX 01 00:00:00FILE "05 - Break For Lovers (Live).wav" WAVE  TRACK 05 AUDIO    TITLE "Break For Lovers (Live)"    PERFORMER "Men I Trust"    REM COMPOSER ""    FLAGS DCP    INDEX 01 00:00:00FILE "06 - Lauren (Live).wav" WAVE  TRACK 06 AUDIO    TITLE "Lauren (Live)"    PERFORMER "Men I Trust"    REM COMPOSER ""    FLAGS DCP    INDEX 01 00:00:00FILE "07 - Tailwhip (Live).wav" WAVE  TRACK 07 AUDIO    TITLE "Tailwhip (Live)"    PERFORMER "Men I Trust"    REM COMPOSER ""    FLAGS DCP    INDEX 01 00:00:00FILE "08 - You Deserve This (Live).wav" WAVE  TRACK 08 AUDIO    TITLE "You Deserve This (Live)"    PERFORMER "Men I Trust"    REM COMPOSER ""    FLAGS DCP    INDEX 01 00:00:00FILE "09 - I Hope To Be Around (Live).wav" WAVE  TRACK 09 AUDIO    TITLE "I Hope To Be Around (Live)"    PERFORMER "Men I Trust"    REM COMPOSER ""    FLAGS DCP    INDEX 01 00:00:00FILE "10 - Lauren ''Duo Version''.wav" WAVE  TRACK 10 AUDIO    TITLE "Lauren 'Duo Version'"    PERFORMER "Men I Trust"    REM COMPOSER ""    FLAGS DCP    INDEX 01 00:00:00FILE "11 - I Hope To Be Around (Live Solo).wav" WAVE  TRACK 11 AUDIO    TITLE "I Hope To Be Around (Live Solo)"    PERFORMER "Men I Trust"    REM COMPOSER ""    FLAGS DCP    INDEX 01 00:00:00FILE "12 - Sad Organn.wav" WAVE  TRACK 12 AUDIO    TITLE "Sad Organn"    PERFORMER "Men I Trust"    REM COMPOSER ""    ISRC USDY41525417    FLAGS DCP    INDEX 01 00:00:00
Вы не можете начинать темы
Вы не можете отвечать на сообщения
Вы не можете редактировать свои сообщения
Вы не можете удалять свои сообщения
Вы не можете голосовать в опросах
Вы не можете прикреплять файлы к сообщениям
Вы можете скачивать файлы
!ВНИМАНИЕ!

Сайт не предоставляет электронные версии произведений, а занимается лишь коллекционированием и каталогизацией ссылок, присылаемых и публикуемых на форуме нашими читателями. Если вы являетесь правообладателем какого-либо представленного материала и не желаете, чтобы ссылка на него находилась в нашем каталоге, свяжитесь с нами, и мы незамедлительно удалим ее. Файлы для обмена на трекере предоставлены пользователями сайта, и администрация не несет ответственности за их содержание. Просьба не заливать файлы, защищенные авторскими правами, а также файлы нелегального содержания!

Искали программы, игры, дополнения, музыка mp3, аниме, аудио книги, журналы? Добро пожаловать на свободный торрент трекер Torrents, у нас можно скачать бесплатно, без смс и регистрации и прочих ограничений лучшие, отборные сборки программ, игр. Скачать торрентом не составит труда даже не опытному пользователю. Раздачи ежедневно обновляются, только лучшие и качественные раздачи, подробные описания и скриншоты. Огромная коллекция программ для работы со звуком, графикой, дизайном, а так же множество плагинов и инструментов к ним с подробной инструкцией и рекомендациями. Прошивки для навигаторов, карты. Разнообразные игры, для Windows, Linux. В коллекцие есть и старые игры любых жанров, Rpg, Action, Shooter, strategy Множество дополнений, модификаций, сценариев для популярных игр в жанре экш, рпг, гонки, стратегии, логические игры. Множество аддонов и сценариев для Microsoft Flight Simulator Большая коллекция книг, учебников. Если нет возможности купить печатное издание - смело скачивайте цифровую версию книги или, быть может, журнала. Не любите читать - можно загрузить бесплатно аудикнигу. Для веб дизайнеров и программистов так же найдется множество специализированного софта, таких как: редакторы с подсветкой, среды программирования, компоненты, системы управления базами данных, разнообразные скрипты и шаблоны. Не так давно у нас появился материал для автолюбителей и владельцев мото - оригинальные и неоригинальные каталоги запчастей, книги и журналы по ремонту и обслуживанию, видеоуроки, статьи по чип тюнингу, прошивкам. Процедура получения контента элементарная, достаточно просто скачать торрент файл и добавить его в загрузку в вашем торрент клиенте. Если у вас нет специального торрент клиента, вы можете его скачать у нас.