(Psychedelic Rock, Hard Rock, Acid Rock) [CD] The Human Beast - Volume One - 1970 (Sunbeam Records UK 2007), FLAC (image+.cue), lossless 

Цитировать
The Human Beast - Volume One
Жанр: Psychedelic Rock, Hard Rock, Acid Rock
Страна-производитель диска: UK
Год издания диска: 2007
Издатель (лейбл): Sunbeam Records
Номер по каталогу: SBRCD5044
Страна: UK
Аудиокодек: FLAC (*.flac)
Тип рипа: image+.cue
Битрейт аудио: lossless
Продолжительность: 00:34:34
Источник (релизер): Sket4er
Наличие сканов в содержимом раздачи: да
Треклист:
01. Mystic Man (Gillies Buchan) 06:50
02. Appearance Is Everything, Style Is a Way of Living (Gillies Buchan) 04:35
03. Brush with the Midnight Butterfly (Gillies Buchan) 05:24
04. Maybe Someday (Mike Heron) 06:22
05. Reality Presented as an Alternative (Gillies Buchan) 05:00
06. Naked Breakfast (Gillies Buchan) 03:09
07. Circle of the Night (Gillies Buchan, David McNiven) 03:11

Лог создания рипа

Exact Audio Copy V1.3 from 2. September 2016
EAC extraction logfile from 12. October 2018, 23:14
The Human Beast / Volume One
Used drive : TSSTcorpCDDVDW SH-224DB Adapter: 1 ID: 0
Read mode : SecureUtilize accurate stream : YesDefeat audio cache : YesMake use of C2 pointers : No
Read offset correction : 6Overread into Lead-In and Lead-Out : NoFill up missing offset samples with silence : YesDelete leading and trailing silent blocks : NoNull samples used in CRC calculations : YesUsed interface : Native Win32 interface for Win NT & 2000
Used output format : User Defined EncoderSelected bitrate : 1024 kBit/sQuality : HighAdd ID3 tag : NoCommand line compressor : C:\Program Files (x86)\Exact Audio Copy\win64\flac.exeAdditional command line options : -8 -V -T "ARTIST=%artist%" -T "TITLE=%title%" -T "ALBUM=%albumtitle%" -T "DATE=%year%" -T "TRACKNUMBER=%tracknr%" -T "GENRE=%genre%" -T "COMMENT=%comment%" %source% -o %dest%
TOC of the extracted CD
Track | Start | Length | Start sector | End sector --------------------------------------------------------- 1 | 0:00.00 | 6:50.27 | 0 | 30776 2 | 6:50.27 | 4:35.05 | 30777 | 51406 3 | 11:25.32 | 5:24.18 | 51407 | 75724 4 | 16:49.50 | 6:22.27 | 75725 | 104401 5 | 23:12.02 | 5:00.40 | 104402 | 126941 6 | 28:12.42 | 3:09.65 | 126942 | 141181 7 | 31:22.32 | 3:11.67 | 141182 | 155573
Range status and errors
Selected range
Filename F:\Sket4er\The Human Beast – Volume One (1970) 2007\The Human Beast - Volume One.wav
Peak level 98.8 % Extraction speed 2.8 X Range quality 99.9 % Test CRC 995192A3 Copy CRC 995192A3 Copy OK
No errors occurred
AccurateRip summary
Track 1 cannot be verified as accurate (confidence 1) [AE6871E4], AccurateRip returned [4D37C928] (AR v2)Track 2 cannot be verified as accurate (confidence 1) [A3972F52], AccurateRip returned [279B6315] (AR v2)Track 3 cannot be verified as accurate (confidence 1) [58F54429], AccurateRip returned [26E96B8E] (AR v2)Track 4 cannot be verified as accurate (confidence 1) [5300FBDD], AccurateRip returned [6833EE85] (AR v2)Track 5 cannot be verified as accurate (confidence 1) [CC3F1E1A], AccurateRip returned [0C7CDD27] (AR v2)Track 6 cannot be verified as accurate (confidence 1) [A19CF2A9], AccurateRip returned [255EBAF2] (AR v2)Track 7 cannot be verified as accurate (confidence 1) [FC72ADC7], AccurateRip returned [1460AD4C] (AR v2)
No tracks could be verified as accurateYou may have a different pressing from the one(s) in the database
End of status report
---- CUETools DB Plugin V2.1.6
[CTDB TOCID: QS6KeypZpZTyl.Qs06wVw6P3jFI-] foundSubmit result: QS6KeypZpZTyl.Qs06wVw6P3jFI- has been confirmedTrack | CTDB Status 1 | (11/11) Accurately ripped 2 | (11/11) Accurately ripped 3 | (11/11) Accurately ripped 4 | (11/11) Accurately ripped 5 | (11/11) Accurately ripped 6 | (11/11) Accurately ripped 7 | (11/11) Accurately ripped
==== Log checksum F7EC12E3D60B7070833283A8A99EC451FF32CA7BCCC0D7930C377971D65EA6F5 ====

Содержание индексной карты (.CUE)

REM GENRE "Psychedelic Rock"REM DATE 1970REM DISCID 5B081A07REM COMMENT "ExactAudioCopy v1.3"PERFORMER "The Human Beast"TITLE "Volume One"REM COMPOSER ""FILE "The Human Beast - Volume One.flac" WAVE  TRACK 01 AUDIO    TITLE "Mystic Man"    PERFORMER "The Human Beast"    REM COMPOSER ""    INDEX 01 00:00:00  TRACK 02 AUDIO    TITLE "Appearance Is Everything, Style Is A Way Of Living"    PERFORMER "The Human Beast"    REM COMPOSER ""    INDEX 01 06:50:27  TRACK 03 AUDIO    TITLE "Brush With The Midnight Butterfly"    PERFORMER "The Human Beast"    REM COMPOSER ""    INDEX 01 11:25:32  TRACK 04 AUDIO    TITLE "Maybe Someday"    PERFORMER "The Human Beast"    REM COMPOSER ""    INDEX 01 16:49:50  TRACK 05 AUDIO    TITLE "Reality Presented As An Alternative"    PERFORMER "The Human Beast"    REM COMPOSER ""    INDEX 01 23:12:02  TRACK 06 AUDIO    TITLE "Naked Breakfast"    PERFORMER "The Human Beast"    REM COMPOSER ""    INDEX 01 28:12:42  TRACK 07 AUDIO    TITLE "Circle Of The Night"    PERFORMER "The Human Beast"    REM COMPOSER ""    INDEX 01 31:22:32

Лог проверки качества

-----------------------
DON'T MODIFY THIS FILE
-----------------------
PERFORMER: auCDtect Task Manager, ver. 1.5.1RC4 build 1.5.1.5Copyright (c) 2008-2010 y-soft. All rights reservedhttp://y-soft.org
ANALYZER: auCDtect: CD records authenticity detector, version 0.8.2Copyright (c) 2004 Oleg Berngardt. All rights reserved.Copyright (c) 2004 Alexander Djourik. All rights reserved.
FILE: The Human Beast - Volume One.flac Size: 204640097 Hash: 5E65FC5CECE8D5B854C08F8279010957 Accuracy: -m0 Conclusion: CDDA 100% Signature: 1429E59E810CDA128307A78F615F178066A82B78

DR log

foobar2000 1.3.9 / Замер динамического диапазона (DR) 1.1.1Дата отчёта:  2018-10-24 17:32:14
--------------------------------------------------------------------------------Анализ: The Human Beast / Volume One--------------------------------------------------------------------------------
DR Пики RMS Продолжительность трека--------------------------------------------------------------------------------DR9 -0.10 дБ -11.46 дБ 6:50 1-Mystic ManDR10 -0.10 дБ -10.93 дБ 4:35 2-Appearance Is Everything, Style Is A Way Of LivingDR9 -0.10 дБ -11.00 дБ 5:24 3-Brush With The Midnight ButterflyDR9 -0.10 дБ -12.64 дБ 6:22 4-Maybe SomedayDR10 -0.10 дБ -10.79 дБ 5:01 5-Reality Presented As An AlternativeDR9 -0.10 дБ -10.84 дБ 3:10 6-Naked BreakfastDR10 -0.10 дБ -10.62 дБ 3:12 7-Circle Of The Night--------------------------------------------------------------------------------
Количество треков: 7Реальные значения DR: DR9
Частота: 44100 ГцКаналов: 2Разрядность: 16Битрейт: 789 кбит/сКодек: FLAC================================================================================
Доп. информация

Состав

Gillies Buchan - Lead Guitar, Vocals
Edward Jones - Bass Guitar, Vocals
John Ramsey - Drums

Об исполнителе

The Human Beast has continued to exert a fascination for collectors, not just for their eponymous album's rarity, but due to the group's connection with Bread Love & Dreams member David McNiven. His relationship with this trio predates that band, however, and musically the two groups have nothing in common, not surprising as McNiven's contribution was mainly lyrical, penning three of the songs on this set. And one can barely imagine the consternation of Bread fans who picked up the Human's album in hopes of hearing a similar folkie prog set. Instead they were subjected to the Beastly sound of razor-sharp psychedelia in an exceedingly dark mode. The group's antecedents are clear: if Jimi Hendrix had lived to join Black Sabbath and released a space rock album, it would probably sound a lot like this. Unfortunately, guitarist Gillies Buchan is not quite up to Hendrix's own standards, nor is the rhythm section equal to Sabbath's. Still, the group's driving sound, extravagant guitar passages, and angsty lyrics should have appealed to unhappy teenagers across the rock world. But in a time of virtuosity, the Beast just didn't have the chops to stand up to the big boys, and the group faded into obscurity. Today, however, the Humans may find new favor with space rockers, headbangers, and even goths with their gloomy aura, mind-bending styling, and guitar-driven sound.
http://www.allmusic.com/album/human-beast-vol-1-mw0001445114
http://rateyourmusic.com/release/album/the-human-beast/volume-one/
Вы не можете начинать темы
Вы не можете отвечать на сообщения
Вы не можете редактировать свои сообщения
Вы не можете удалять свои сообщения
Вы не можете голосовать в опросах
Вы не можете прикреплять файлы к сообщениям
Вы можете скачивать файлы
!ВНИМАНИЕ!

Сайт не предоставляет электронные версии произведений, а занимается лишь коллекционированием и каталогизацией ссылок, присылаемых и публикуемых на форуме нашими читателями. Если вы являетесь правообладателем какого-либо представленного материала и не желаете, чтобы ссылка на него находилась в нашем каталоге, свяжитесь с нами, и мы незамедлительно удалим ее. Файлы для обмена на трекере предоставлены пользователями сайта, и администрация не несет ответственности за их содержание. Просьба не заливать файлы, защищенные авторскими правами, а также файлы нелегального содержания!

Искали программы, игры, дополнения, музыка mp3, аниме, аудио книги, журналы? Добро пожаловать на свободный торрент трекер Torrents, у нас можно скачать бесплатно, без смс и регистрации и прочих ограничений лучшие, отборные сборки программ, игр. Скачать торрентом не составит труда даже не опытному пользователю. Раздачи ежедневно обновляются, только лучшие и качественные раздачи, подробные описания и скриншоты. Огромная коллекция программ для работы со звуком, графикой, дизайном, а так же множество плагинов и инструментов к ним с подробной инструкцией и рекомендациями. Прошивки для навигаторов, карты. Разнообразные игры, для Windows, Linux. В коллекцие есть и старые игры любых жанров, Rpg, Action, Shooter, strategy Множество дополнений, модификаций, сценариев для популярных игр в жанре экш, рпг, гонки, стратегии, логические игры. Множество аддонов и сценариев для Microsoft Flight Simulator Большая коллекция книг, учебников. Если нет возможности купить печатное издание - смело скачивайте цифровую версию книги или, быть может, журнала. Не любите читать - можно загрузить бесплатно аудикнигу. Для веб дизайнеров и программистов так же найдется множество специализированного софта, таких как: редакторы с подсветкой, среды программирования, компоненты, системы управления базами данных, разнообразные скрипты и шаблоны. Не так давно у нас появился материал для автолюбителей и владельцев мото - оригинальные и неоригинальные каталоги запчастей, книги и журналы по ремонту и обслуживанию, видеоуроки, статьи по чип тюнингу, прошивкам. Процедура получения контента элементарная, достаточно просто скачать торрент файл и добавить его в загрузку в вашем торрент клиенте. Если у вас нет специального торрент клиента, вы можете его скачать у нас.