(Progressive Rock, Jazz Rock, Fusion) [CD] Free Human Zoo - Freedom, Now! - 2016, FLAC (image+.cue), lossless 

Цитировать
Free Human Zoo - Freedom, Now!
Жанр: Progressive Rock, Jazz Rock, Fusion
Носитель: CD
Страна-производитель диска (релиза): France
Год издания: 2016
Издатель (лейбл): EX-TENSION Records
Номер по каталогу: EX13
Страна исполнителя (группы): France
Аудиокодек: FLAC (*.flac)
Тип рипа: image+.cue
Битрейт аудио: lossless
Продолжительность: 00:56:21
Источник (релизер): собственный рип
Наличие сканов в содержимом раздачи: да
Треклист:
Borokini
01. Une Nuit, Cette Présence... 3:05
02. Danse De L'Ivresse Corps Et Esprit 3:18
03. Valse Ascensionnelle (Vers Les Nuées) 3:42
Amour Moteur, Matrice
04. Magie D'Un Sourire... 5:08
05. Rupture Des Temps, Cassure Du Temps... 3:48
06. L'Instant Vient... / Plénitude (Coda) 6:01
Aspettando La Primavera
07. Aspettando... 3:51
08. L'Horloge Atemporelle... 2:52
09. « Pluie, Vapeur, Sécheresse »... (Changements, Dérèglements, Bouleversements)... / La Primavera (Coda) 2:46
Maniacus
10. Marche Des Méchants... / Les Méchants Impunis... / Forces De Vie (Ou La Puissance Du Bien)... 11:24
11. Valse Des Enfants... 3:43
12. Solitude (Les Larmes)... 2:56
13. Des Pleurs Aux Rires... / Anamen « Ainsi Ne Soit-Il Plus » (Coda) 3:40

Лог создания рипа

Exact Audio Copy V1.0 beta 6 from 9. April 2015
Отчёт EAC об извлечении, выполненном 1. сентября 2018, 12:54
Free Human Zoo / Freedom, Now!
Дисковод: hp CDDVDW SU-208CB Adapter: 0 ID: 0
Режим чтения : ДостоверностьИспользование точного потока : ДаОтключение кэша аудио : ДаИспользование указателей C2 : Нет
Коррекция смещения при чтении : 6Способность читать области Lead-in и Lead-out : НетЗаполнение пропущенных сэмплов тишиной : ДаУдаление блоков с тишиной в начале и конце : НетПри вычислениях CRC использовались нулевые сэмплы : ДаИнтерфейс : Установленный внешний ASPI-интерфейс
Выходной формат : Пользовательский кодировщикВыбранный битрейт : 1024 kBit/sКачество : ВысокийДобавление ID3-тега : НетУтилита сжатия : C:\Program Files (x86)\Exact Audio Copy\Flac\flac.exeДополнительные параметры : -V -8 -T "Date=%year%" -T "Genre=%genre%" %source%
TOC извлечённого CD
Трек | Старт | Длительность | Начальный сектор | Конечный сектор --------------------------------------------------------------------- 1 | 0:00.00 | 3:05.27 | 0 | 13901 2 | 3:05.27 | 3:18.17 | 13902 | 28768 3 | 6:23.44 | 3:42.07 | 28769 | 45425 4 | 10:05.51 | 5:08.51 | 45426 | 68576 5 | 15:14.27 | 3:48.56 | 68577 | 85732 6 | 19:03.08 | 6:01.52 | 85733 | 112859 7 | 25:04.60 | 3:51.42 | 112860 | 130226 8 | 28:56.27 | 2:52.56 | 130227 | 143182 9 | 31:49.08 | 2:46.35 | 143183 | 155667 10 | 34:35.43 | 11:24.72 | 155668 | 207039 11 | 46:00.40 | 3:43.13 | 207040 | 223777 12 | 49:43.53 | 2:56.06 | 223778 | 236983 13 | 52:39.59 | 3:41.00 | 236984 | 253558
Характеристики диапазона извлечения и сообщения об ошибках
Выбранный диапазон
Имя файла C:\Users\Пользователь\Music\Free Human Zoo - 2016 - Freedom, Now!\Free Human Zoo - Freedom, Now!.wav
Пиковый уровень 100.0 % Скорость извлечения 3.7 X Качество диапазона 100.0 % CRC теста 5FA8FCB4 CRC копии 5FA8FCB4 Копирование... OK
Ошибок не произошло
AccurateRip: сводка
Трек 1 отсутствует в базе данныхТрек 2 отсутствует в базе данныхТрек 3 отсутствует в базе данныхТрек 4 отсутствует в базе данныхТрек 5 отсутствует в базе данныхТрек 6 отсутствует в базе данныхТрек 7 отсутствует в базе данныхТрек 8 отсутствует в базе данныхТрек 9 отсутствует в базе данныхТрек 10 отсутствует в базе данныхТрек 11 отсутствует в базе данныхТрек 12 отсутствует в базе данныхТрек 13 отсутствует в базе данных
Ни одного трека нет в базе AccurateRip
Конец отчёта
---- CUETools DB Plugin V2.1.6
[CTDB TOCID: fsFUTg8TUZ4xZR2xQ7y1UVfPuuE-] foundSubmit result: fsFUTg8TUZ4xZR2xQ7y1UVfPuuE- has been confirmedTrack | CTDB Status 1 | (3/3) Accurately ripped 2 | (3/3) Accurately ripped 3 | (3/3) Accurately ripped 4 | (3/3) Accurately ripped 5 | (3/3) Accurately ripped 6 | (3/3) Accurately ripped 7 | (3/3) Accurately ripped 8 | (3/3) Accurately ripped 9 | (3/3) Accurately ripped 10 | (3/3) Accurately ripped 11 | (3/3) Accurately ripped 12 | (3/3) Accurately ripped 13 | (3/3) Accurately ripped
==== Контрольная сумма отчёта 0667901AB2C7E2BCB6F5D7B8265023A03D75DEEE6C0B5DD1EBA2F1207B2DF9C5 ====

Замер динамического диапазона (DR)

foobar2000 1.4 / Dynamic Range Meter 1.1.1log date: 2018-09-01 13:57:31
--------------------------------------------------------------------------------Analyzed: Free Human Zoo / Freedom, Now!--------------------------------------------------------------------------------
DR Peak RMS Duration Track--------------------------------------------------------------------------------DR9 -0.17 dB -10.61 dB 3:05 01-Une nuit, cette presenceDR10 -0.14 dB -11.43 dB 3:18 02-Danse de l'ivresse coprs et espritDR10 -0.16 dB -13.60 dB 3:42 03-Valse ascensionnelle (Vers Les Nuees)DR10 -0.16 dB -12.66 dB 5:09 04-Magie d'un sourireDR9 0.00 dB -10.32 dB 3:49 05-Rupture des temps, cassure du tempsDR9 -0.04 dB -12.70 dB 6:02 06-L'instant vient.../Plenitude (Coda)DR10 -0.19 dB -12.56 dB 3:52 07-AspettandoDR9 -0.19 dB -11.17 dB 2:53 08-L'Horloge atemporelleDR10 -0.14 dB -11.19 dB 2:46 09-Pluie, vapeur, secheresseDR10 -0.43 dB -11.75 dB 11:25 10-Marche des mechantsDR11 -0.50 dB -14.37 dB 3:43 11-Valse des enfantsDR10 -0.49 dB -15.08 dB 2:56 12-SolitudeDR10 -0.45 dB -13.80 dB 3:41 13-Des pleurs aux rires--------------------------------------------------------------------------------
Number of tracks: 13Official DR value: DR10
Samplerate: 44100 HzChannels: 2Bits per sample: 16Bitrate: 796 kbpsCodec: FLAC================================================================================

Об исполнителе (группе)

http://www.freehumanzoo.com/
Вы не можете начинать темы
Вы не можете отвечать на сообщения
Вы не можете редактировать свои сообщения
Вы не можете удалять свои сообщения
Вы не можете голосовать в опросах
Вы не можете прикреплять файлы к сообщениям
Вы можете скачивать файлы
!ВНИМАНИЕ!

Сайт не предоставляет электронные версии произведений, а занимается лишь коллекционированием и каталогизацией ссылок, присылаемых и публикуемых на форуме нашими читателями. Если вы являетесь правообладателем какого-либо представленного материала и не желаете, чтобы ссылка на него находилась в нашем каталоге, свяжитесь с нами, и мы незамедлительно удалим ее. Файлы для обмена на трекере предоставлены пользователями сайта, и администрация не несет ответственности за их содержание. Просьба не заливать файлы, защищенные авторскими правами, а также файлы нелегального содержания!

Искали программы, игры, дополнения, музыка mp3, аниме, аудио книги, журналы? Добро пожаловать на свободный торрент трекер Torrents, у нас можно скачать бесплатно, без смс и регистрации и прочих ограничений лучшие, отборные сборки программ, игр. Скачать торрентом не составит труда даже не опытному пользователю. Раздачи ежедневно обновляются, только лучшие и качественные раздачи, подробные описания и скриншоты. Огромная коллекция программ для работы со звуком, графикой, дизайном, а так же множество плагинов и инструментов к ним с подробной инструкцией и рекомендациями. Прошивки для навигаторов, карты. Разнообразные игры, для Windows, Linux. В коллекцие есть и старые игры любых жанров, Rpg, Action, Shooter, strategy Множество дополнений, модификаций, сценариев для популярных игр в жанре экш, рпг, гонки, стратегии, логические игры. Множество аддонов и сценариев для Microsoft Flight Simulator Большая коллекция книг, учебников. Если нет возможности купить печатное издание - смело скачивайте цифровую версию книги или, быть может, журнала. Не любите читать - можно загрузить бесплатно аудикнигу. Для веб дизайнеров и программистов так же найдется множество специализированного софта, таких как: редакторы с подсветкой, среды программирования, компоненты, системы управления базами данных, разнообразные скрипты и шаблоны. Не так давно у нас появился материал для автолюбителей и владельцев мото - оригинальные и неоригинальные каталоги запчастей, книги и журналы по ремонту и обслуживанию, видеоуроки, статьи по чип тюнингу, прошивкам. Процедура получения контента элементарная, достаточно просто скачать торрент файл и добавить его в загрузку в вашем торрент клиенте. Если у вас нет специального торрент клиента, вы можете его скачать у нас.